conanlcg
超級版主

[2019] [歐美] [劇情] [BD-720P] 獅子王/獅子王真人版 The.Lion.King.2019.RERiP.720p.BluRay.x264-SPARKS 5.48GB

-->

帖子完整標題:獅子王/獅子王真人版 The.Lion.King.2019.RERiP.720p.BluRay.x264-SPARKS 5.48GB




◎譯  名 獅子王 / 獅子王真人版 / 獅子王真實版 / 獅子王真獅版
◎片  名 The Lion King
◎年  代 2019
◎產  地 美國
◎類  別 劇情 / 動畫 / 冒險
◎語  言 英語 / 科薩語
◎上映日期 2019-07-12(中國大陸) / 2019-07-19(美國)
◎IMDb評分 7.1/10 from 104480 users
◎IMDb鏈接 http://www.imdb.com/title/tt6105098
◎豆瓣評分 7.4/10 from 196500 users
◎豆瓣鏈接 https://movie.douban.com/subject/26884354/
◎片  長 118分鐘
◎導  演 喬恩·費儒 Jon Favreau
◎編  劇 杰夫·內桑森 Jeff Nathanson / 布蘭達?查普曼 Brenda Chapman / 艾琳·梅琪 Irene Mecchi / 喬納森·羅伯茨 Jonathan Roberts / 琳達·伍爾芙頓 Linda Woolverton
◎主  演 唐納德·格洛弗 Donald Glover
      阿爾法·伍達德 Alfre Woodard
      詹姆斯·厄爾·瓊斯 James Earl Jones
      切瓦特·埃加福特 Chiwetel Ejiofor
      科甘-邁克爾·凱 Keegan-Michael Key
      塞斯·羅根 Seth Rogen
      比利·艾希納 Billy Eichner
      碧昂絲·諾爾斯 Beyoncé Knowles
      埃里克·安德烈 Eric André
      弗洛倫絲·卡松巴 Florence Kasumba
      約翰·卡尼 John Kani
      約翰·奧利弗 John Oliver
      艾米·塞德麗絲 Amy Sedaris


◎標  簽 迪士尼 | 經典 | 動畫 | 童年 | 美國 | 成長 | 2019 | 動物

◎簡  介

  非洲大草原上一輪紅日冉冉升起,為高大的乞力馬扎羅山披上層金色的光紗,所有的動物涌向了同一個地方——榮耀石,興奮地等待著一個重大消息的宣布:它們的國王木法沙將迎來自己的新生兒。
  這個新生兒就是小獅子辛巴,它是木法沙的法定接班人、榮耀石未來的國王。
  小獅子王辛巴在眾多熱情的朋友的陪伴下,不但經歷了生命中最光榮的時刻,也遭遇了最艱難的挑戰,最后終于成為了森林之王,也在周而復始生生不息的自然中體會出生命的真義。

◎獲獎情況

  第5屆豆瓣電影年度榜單(2018)
  最值得期待的外語電影(提名)
Video
ID : 1
Format : AVC
Format/Info : Advanced Video Codec
Format profile : [email protected]
Format settings : CABAC / 5 Ref Frames
Format settings, CABAC : Yes
Format settings, Reference frames : 5 frames
Codec ID : V_MPEG4/ISO/AVC
Duration : 1 h 58 min
Bit rate : 5 105 kb/s
Width : 1 280 pixels
Height : 720 pixels
Display aspect ratio : 16:9
Frame rate mode : Constant
Frame rate : 23.976 (24000/1001) FPS
Color space : YUV
Chroma subsampling : 4:2:0
Bit depth : 8 bits
Scan type : Progressive
Bits/(Pixel*Frame) : 0.231
Stream size : 4.21 GiB (77%)
Writing library : x264 core 158 r2984 3759fcb
Encoding settings : cabac=1 / ref=5 / deblock=1:-3:-3 / analyse=0x3:0x113 / me=umh / subme=8 / psy=1 / psy_rd=1.00:0.00 / mixed_ref=1 / me_range=16 / chroma_me=1 / trellis=1 / 8x8dct=1 / cqm=0 / deadzone=21,11 / fast_pskip=1 / chroma_qp_offset=-2 / threads=22 / lookahead_threads=3 / sliced_threads=0 / nr=0 / decimate=1 / interlaced=0 / bluray_compat=0 / constrained_intra=0 / bframes=3 / b_pyramid=2 / b_adapt=1 / b_bias=0 / direct=3 / weightb=1 / open_gop=0 / weightp=2 / keyint=250 / keyint_min=23 / scenecut=40 / intra_refresh=0 / rc_lookahead=50 / rc=2pass / mbtree=1 / bitrate=5105 / ratetol=1.0 / qcomp=0.60 / qpmin=0 / qpmax=69 / qpstep=4 / cplxblur=20.0 / qblur=0.5 / ip_ratio=1.40 / aq=1:1.00
Language : English
Default : Yes
Forced : No

Audio
ID : 2
Format : DTS
Format/Info : Digital Theater Systems
Codec ID : A_DTS
Duration : 1 h 58 min
Bit rate mode : Constant
Bit rate : 1 509 kb/s
Channel(s) : 6 channels
Channel layout : C L R Ls Rs LFE
Sampling rate : 48.0 kHz
Frame rate : 93.750 FPS (512 SPF)
Bit depth : 24 bits
Compression mode : Lossy
Stream size : 1.25 GiB (23%)
Language : English
Default : Yes
Forced : No

Menu
00:00:00.000 : en:00:00:00.000
00:04:50.499 : en:00:04:50.499
00:10:51.067 : en:00:10:51.067
00:17:47.692 : en:00:17:47.692
00:23:53.015 : en:00:23:53.015
00:30:00.132 : en:00:30:00.132
00:33:05.066 : en:00:33:05.066
00:37:09.310 : en:00:37:09.310
00:43:42.912 : en:00:43:42.912
00:50:47.336 : en:00:50:47.336
00:55:02.716 : en:00:55:02.716
00:59:48.460 : en:00:59:48.460
01:06:27.233 : en:01:06:27.233
01:14:32.093 : en:01:14:32.093
01:18:26.410 : en:01:18:26.410
01:23:07.900 : en:01:23:07.900
01:28:04.654 : en:01:28:04.654
01:33:10.877 : en:01:33:10.877
01:37:13.745 : en:01:37:13.745
01:44:39.190 : en:01:44:39.190
01:47:47.336 : en:01:47:47.336





1 個附件 售價 大小 下載 時間

The.Lion.King.2019.RERiP.720p.BluRay.x264-SPARKS.torrent 0 金幣 28.27K 378 次 5小時前

#1樓
發帖時間:2019-10-12 02:08:37   |   回復數:0
游客組