conanlcg
超級版主

[2019] [歐美] [劇情] [BD-1080P] 獅子王/獅子王真人版 The.Lion.King.2019.1080p.BluRay.x264.DTS-HD.MA.7.1-FGT 7.61GB

-->

帖子完整標題:獅子王/獅子王真人版 The.Lion.King.2019.1080p.BluRay.x264.DTS-HD.MA.7.1-FGT 7.61GB




◎譯  名 獅子王 / 獅子王真人版 / 獅子王真實版 / 獅子王真獅版
◎片  名 The Lion King
◎年  代 2019
◎產  地 美國
◎類  別 劇情 / 動畫 / 冒險
◎語  言 英語 / 科薩語
◎上映日期 2019-07-12(中國大陸) / 2019-07-19(美國)
◎IMDb評分 7.1/10 from 104480 users
◎IMDb鏈接 http://www.imdb.com/title/tt6105098
◎豆瓣評分 7.4/10 from 196500 users
◎豆瓣鏈接 https://movie.douban.com/subject/26884354/
◎片  長 118分鐘
◎導  演 喬恩·費儒 Jon Favreau
◎編  劇 杰夫·內桑森 Jeff Nathanson / 布蘭達?查普曼 Brenda Chapman / 艾琳·梅琪 Irene Mecchi / 喬納森·羅伯茨 Jonathan Roberts / 琳達·伍爾芙頓 Linda Woolverton
◎主  演 唐納德·格洛弗 Donald Glover
      阿爾法·伍達德 Alfre Woodard
      詹姆斯·厄爾·瓊斯 James Earl Jones
      切瓦特·埃加福特 Chiwetel Ejiofor
      科甘-邁克爾·凱 Keegan-Michael Key
      塞斯·羅根 Seth Rogen
      比利·艾希納 Billy Eichner
      碧昂絲·諾爾斯 Beyoncé Knowles
      埃里克·安德烈 Eric André
      弗洛倫絲·卡松巴 Florence Kasumba
      約翰·卡尼 John Kani
      約翰·奧利弗 John Oliver
      艾米·塞德麗絲 Amy Sedaris


◎標  簽 迪士尼 | 經典 | 動畫 | 童年 | 美國 | 成長 | 2019 | 動物

◎簡  介

  非洲大草原上一輪紅日冉冉升起,為高大的乞力馬扎羅山披上層金色的光紗,所有的動物涌向了同一個地方——榮耀石,興奮地等待著一個重大消息的宣布:它們的國王木法沙將迎來自己的新生兒。
  這個新生兒就是小獅子辛巴,它是木法沙的法定接班人、榮耀石未來的國王。
  小獅子王辛巴在眾多熱情的朋友的陪伴下,不但經歷了生命中最光榮的時刻,也遭遇了最艱難的挑戰,最后終于成為了森林之王,也在周而復始生生不息的自然中體會出生命的真義。

◎獲獎情況

  第5屆豆瓣電影年度榜單(2018)
  最值得期待的外語電影(提名)
Video
ID : 1
Format : AVC
Format/Info : Advanced Video Codec
Format profile : [email protected]
Format settings : CABAC / 4 Ref Frames
Format settings, CABAC : Yes
Format settings, Reference frames : 4 frames
Codec ID : V_MPEG4/ISO/AVC
Duration : 1 h 58 min
Bit rate : 5 105 kb/s
Width : 1 920 pixels
Height : 1 080 pixels
Display aspect ratio : 16:9
Frame rate mode : Constant
Frame rate : 23.976 FPS
Color space : YUV
Chroma subsampling : 4:2:0
Bit depth : 8 bits
Scan type : Progressive
Bits/(Pixel*Frame) : 0.103
Stream size : 4.22 GiB (55%)
Title : The.Lion.King.2019.1080p.BluRay.x264.DTS-HD.MA.7.1-FGT
Writing library : x264 core 158 r2984 3759fcb
Encoding settings : cabac=1 / ref=4 / deblock=1:1:1 / analyse=0x3:0x113 / me=umh / subme=8 / psy=1 / psy_rd=0.40:0.00 / mixed_ref=1 / me_range=16 / chroma_me=1 / trellis=1 / 8x8dct=1 / cqm=0 / deadzone=21,11 / fast_pskip=1 / chroma_qp_offset=-2 / threads=30 / lookahead_threads=5 / sliced_threads=0 / nr=0 / decimate=1 / interlaced=0 / bluray_compat=0 / constrained_intra=0 / bframes=5 / b_pyramid=2 / b_adapt=1 / b_bias=0 / direct=3 / weightb=1 / open_gop=0 / weightp=2 / keyint=250 / keyint_min=23 / scenecut=40 / intra_refresh=0 / rc_lookahead=50 / rc=2pass / mbtree=1 / bitrate=5105 / ratetol=1.0 / qcomp=0.60 / qpmin=0 / qpmax=69 / qpstep=4 / cplxblur=20.0 / qblur=0.5 / ip_ratio=1.40 / aq=1:0.60
Language : English
Default : Yes
Forced : No

Audio
ID : 2
Format : DTS XLL
Format/Info : Digital Theater Systems
Commercial name : DTS-HD Master Audio
Codec ID : A_DTS
Duration : 1 h 58 min
Bit rate mode : Variable
Bit rate : 4 033 kb/s
Channel(s) : 8 channels
Channel layout : C L R LFE Lb Rb Lss Rss
Sampling rate : 48.0 kHz
Frame rate : 93.750 FPS (512 SPF)
Bit depth : 24 bits
Compression mode : Lossless
Stream size : 3.33 GiB (44%)
Title : The.Lion.King.2019.1080p.BluRay.x264.DTS-HD.MA.7.1-FGT
Language : English
Default : Yes
Forced : No

Text #1
ID : 3
Format : UTF-8
Codec ID : S_TEXT/UTF8
Codec ID/Info : UTF-8 Plain Text
Duration : 1 h 50 min
Bit rate : 49 b/s
Count of elements : 1547
Stream size : 40.0 KiB (0%)
Title : English-SRT
Language : English
Default : Yes
Forced : No

Text #2
ID : 4
Format : UTF-8
Codec ID : S_TEXT/UTF8
Codec ID/Info : UTF-8 Plain Text
Duration : 1 h 52 min
Bit rate : 55 b/s
Count of elements : 1738
Stream size : 45.1 KiB (0%)
Title : English-SDH-SRT
Language : English
Default : No
Forced : No

Text #3
ID : 5
Format : PGS
Muxing mode : zlib
Codec ID : S_HDMV/PGS
Codec ID/Info : Picture based subtitle format used on BDs/HD-DVDs
Duration : 1 h 52 min
Bit rate : 37.3 kb/s
Count of elements : 3420
Stream size : 29.8 MiB (0%)
Title : English-PGS
Language : English
Default : No
Forced : No

Text #4
ID : 6
Format : PGS
Muxing mode : zlib
Codec ID : S_HDMV/PGS
Codec ID/Info : Picture based subtitle format used on BDs/HD-DVDs
Duration : 1 h 56 min
Bit rate : 31.4 kb/s
Count of elements : 2788
Stream size : 26.2 MiB (0%)
Title : French-PGS
Language : French
Default : No
Forced : No

Text #5
ID : 7
Format : PGS
Muxing mode : zlib
Codec ID : S_HDMV/PGS
Codec ID/Info : Picture based subtitle format used on BDs/HD-DVDs
Duration : 1 h 55 min
Bit rate : 25.9 kb/s
Count of elements : 2556
Stream size : 21.5 MiB (0%)
Title : French-PGS
Language : French
Default : No
Forced : No

Text #6
ID : 8
Format : PGS
Muxing mode : zlib
Codec ID : S_HDMV/PGS
Codec ID/Info : Picture based subtitle format used on BDs/HD-DVDs
Duration : 1 h 55 min
Bit rate : 28.9 kb/s
Count of elements : 2850
Stream size : 24.0 MiB (0%)
Title : German-PGS
Language : German
Default : No
Forced : No

Text #7
ID : 9
Format : PGS
Muxing mode : zlib
Codec ID : S_HDMV/PGS
Codec ID/Info : Picture based subtitle format used on BDs/HD-DVDs
Duration : 1 h 55 min
Bit rate : 28.1 kb/s
Count of elements : 2716
Stream size : 23.3 MiB (0%)
Title : Italian-PGS
Language : Italian
Default : No
Forced : No

Text #8
ID : 10
Format : PGS
Muxing mode : zlib
Codec ID : S_HDMV/PGS
Codec ID/Info : Picture based subtitle format used on BDs/HD-DVDs
Duration : 1 h 55 min
Bit rate : 25.9 kb/s
Count of elements : 2716
Stream size : 21.4 MiB (0%)
Title : Norwegian-PGS
Language : Norwegian
Default : No
Forced : No

Text #9
ID : 11
Format : PGS
Muxing mode : zlib
Codec ID : S_HDMV/PGS
Codec ID/Info : Picture based subtitle format used on BDs/HD-DVDs
Duration : 1 h 46 min
Bit rate : 32.7 kb/s
Count of elements : 2742
Stream size : 24.8 MiB (0%)
Title : Spanish-PGS
Language : Spanish
Default : No
Forced : No

Text #10
ID : 12
Format : PGS
Muxing mode : zlib
Codec ID : S_HDMV/PGS
Codec ID/Info : Picture based subtitle format used on BDs/HD-DVDs
Duration : 1 h 55 min
Bit rate : 24.1 kb/s
Count of elements : 1890
Stream size : 20.0 MiB (0%)
Title : Swedish-PGS
Language : Swedish
Default : No
Forced : No

Menu
00:00:00.000 : en:\"Circle Of Life/Nants\' Ingonyama\"
00:04:50.499 : en:\"Life\'s Not Fair\"
00:10:51.067 : en:\"Everything The Light Touches\"
00:17:47.692 : en:\"I Just Can\'t Wait To Be King\"
00:23:53.015 : en:Elephant Graveyard
00:30:00.132 : en:Under The Stars
00:33:05.066 : en:\"Be Prepared\"
00:37:09.310 : en:Stampede
00:43:42.912 : en:Scar Takes Over
00:50:47.336 : en:Timon And Pumbaa
00:55:02.716 : en:\"Hakuna Matata\"
00:59:48.460 : en:Scar\'s Kingdom
01:06:27.233 : en:\"Line Of Indifference\"
01:14:32.093 : en:\"The Lion Sleeps Tonight\"
01:18:26.410 : en:\"Can You Feel The Love Tonight\"
01:23:07.900 : en:\"He Lives In You\"
01:28:04.654 : en:\"Spirit\"
01:33:10.877 : en:Simba Confronts Scar
01:37:13.745 : en:Battle For Pride Rock
01:44:39.190 : en:The Rightful King
01:47:47.336 : en:End Credits/\"Never Too Late\"





1 個附件 售價 大小 下載 時間

The.Lion.King.2019.1080p.BluRay.x264.DTS-HD.MA.7.1-FGT.torrent 0 金幣 38.59K 406 次 5小時前

#1樓
發帖時間:2019-10-12 02:12:59   |   回復數:0
游客組