conanlcg
超級版主

[2015] [其他] [動作] [WEB-1080P] 原子伊甸園 Atomic.Eden.2015.1080p.AMZN.WEBRip.DDP5.1.x264-iKA 5.66GB

-->

帖子完整標題:原子伊甸園 Atomic.Eden.2015.1080p.AMZN.WEBRip.DDP5.1.x264-iKA 5.66GB




◎譯  名 原子伊甸園
◎片  名 Atomic Eden
◎年  代 2015
◎產  地 德國 / 美國 / 烏克蘭
◎類  別 動作 / 驚悚 / 冒險
◎語  言 英語
◎上映日期 2015-11-12(科威特)
◎IMDb評分 5.9/10 from 50 users
◎IMDb鏈接 https://www.imdb.com/title/tt2974726
◎豆瓣評分 0/10 from 0 users
◎豆瓣鏈接 https://movie.douban.com/subject/27140975/
◎片  長 85分鐘
◎導  演 Nico Sentner
◎編  劇 Nico Sentner
◎主  演 弗雷德·威廉森 Fred Williamson
      Mike M?ller
      加藤葉月 Hazuki Kato
      洛倫佐·拉馬斯 Lorenzo Lamas
      Wolfgang Riehm
      Everett Ray Aponte
      Nico Sentner
      Dominik Starck
      Josephine Hies
      Jens Nier
      Martin Wunderlich
      Carolina Rath
      Thomas Kock
      Alexander Mack
      Caterina D?hring


◎標  簽 美國 | 德國 | 動作

◎簡  介

  影片講述了一群國際雇傭兵在執行一項神秘的任務時意外地被困在一個破舊的開采場——切爾諾貝利的廢墟。在彈盡糧絕且無法與外界獲得聯系的情況下,他們在那里遭遇了一群暴力狂人,為此所有人必須聯合起來對抗這群入侵者。以8人之力頑抗800人,他們唯一的信念就是:絕不認輸。
Video
ID : 1
Format : AVC
Format/Info : Advanced Video Codec
Format profile : [email protected]
Format settings : CABAC / 4 Ref Frames
Format settings, CABAC : Yes
Format settings, Reference frames : 4 frames
Codec ID : V_MPEG4/ISO/AVC
Duration : 1 h 27 min
Bit rate mode : Constant
Bit rate : 8 632 kb/s
Nominal bit rate : 10 000 kb/s
Width : 1 920 pixels
Height : 1 080 pixels
Display aspect ratio : 16:9
Frame rate mode : Constant
Frame rate : 23.976 (24000/1001) FPS
Color space : YUV
Chroma subsampling : 4:2:0
Bit depth : 8 bits
Scan type : Progressive
Bits/(Pixel*Frame) : 0.174
Stream size : 5.27 GiB (93%)
Default : Yes
Forced : No
Color range : Limited
Color primaries : BT.709
Transfer characteristics : BT.709
Matrix coefficients : BT.709

Audio
ID : 2
Format : E-AC-3
Format/Info : Enhanced AC-3
Commercial name : Dolby Digital Plus
Codec ID : A_EAC3
Duration : 1 h 27 min
Bit rate mode : Constant
Bit rate : 640 kb/s
Channel(s) : 6 channels
Channel layout : L R C LFE Ls Rs
Sampling rate : 48.0 kHz
Frame rate : 31.250 FPS (1536 SPF)
Compression mode : Lossy
Stream size : 400 MiB (7%)
Language : English
Service kind : Complete Main
Default : Yes
Forced : No

Text
ID : 3
Format : UTF-8
Codec ID : S_TEXT/UTF8
Codec ID/Info : UTF-8 Plain Text
Duration : 1 h 25 min
Bit rate : 34 b/s
Count of elements : 845
Stream size : 21.6 KiB (0%)
Language : English
Default : No
Forced : No





1 個附件 售價 大小 下載 時間

Atomic.Eden.2015.1080p.AMZN.WEBRip.DDP5.1.x264-iKA.torrent 0 金幣 28.82K 91 次 4小時前

#1樓
發帖時間:2019-10-12 03:06:38   |   回復數:0
游客組