conanlcg
超級版主

[更 早] [其他] [喜劇] [WEB-1080P] 笑破鐵幕/烏龍大機密 Top.Secret.1984.1080p.AMZN.WEBRip.DDP5.1.x264-NTb 9.57GB

-->

帖子完整標題:笑破鐵幕/烏龍大機密 Top.Secret.1984.1080p.AMZN.WEBRip.DDP5.1.x264-NTb 9.57GB




◎譯  名 笑破鐵幕 / 烏龍大機密 / 烏龍大秘密
◎片  名 Top Secret!
◎年  代 1984
◎產  地 美國 / 英國
◎類  別 喜劇 / 動作 / 愛情
◎語  言 英語 / 德語 / 依地語
◎上映日期 1984-08-09
◎IMDb評分 7.2/10 from 55494 users
◎IMDb鏈接 https://www.imdb.com/title/tt0088286
◎豆瓣評分 7.9/10 from 3545 users
◎豆瓣鏈接 https://movie.douban.com/subject/1299851/
◎片  長 90 分鐘
◎導  演 大衛·扎克 David Zucker / 杰瑞·扎克 Jerry Zucker / Jim Abrahams
◎編  劇 大衛·扎克 David Zucker / 杰瑞·扎克 Jerry Zucker / Jim Abrahams
◎主  演 方·基默 Val Kilmer
      彼得·庫欣 Peter Cushing
      Christopher Villiers


◎標  簽 喜劇 | 美國 | 惡搞 | 無厘頭 | 搞笑 | 1984 | 英國 | 1980s

◎簡  介

  此片由曾以《空前絕后滿天飛》和《家有惡夫》揚名電影界的三位導演吉姆.亞伯拉罕斯、戴維.朱克、和杰里.朱克共同執導,三人共有的特點就是慣以戲謔性的電影手法來泡制笑料。劇情描述一名揚名美國的搖滾樂歌手尼克瑞應邀前往東德表演,邂逅科學家佛萊曼的女兒希拉莉,在得知佛萊曼被囚在監獄制造一種致命武器后,決意幫助她劫獄救父,因此無意中被卷入了一宗間諜案。該片以極端夸張的手法模仿希契科克式的間諜動作,對××主義有較深的諷刺意味,其中也有不少令人忍俊不禁的發笑片斷和場面,值得一看。
Video
ID : 1
Format : AVC
Format/Info : Advanced Video Codec
Format profile : [email protected]
Format settings : CABAC / 4 Ref Frames
Format settings, CABAC : Yes
Format settings, Reference frames : 4 frames
Codec ID : V_MPEG4/ISO/AVC
Duration : 1 h 30 min
Bit rate mode : Variable
Bit rate : 14.3 Mb/s
Maximum bit rate : 15.0 Mb/s
Width : 1 920 pixels
Height : 1 080 pixels
Display aspect ratio : 16:9
Frame rate mode : Constant
Frame rate : 23.976 (24000/1001) FPS
Color space : YUV
Chroma subsampling : 4:2:0
Bit depth : 8 bits
Scan type : Progressive
Bits/(Pixel*Frame) : 0.287
Stream size : 8.97 GiB (94%)
Writing library : x264 core 148 r2623 d5b2374
Encoding settings : cabac=1 / ref=4 / deblock=1:-1:-1 / analyse=0x3:0x133 / me=umh / subme=9 / psy=1 / psy_rd=1.00:0.15 / mixed_ref=1 / me_range=24 / chroma_me=1 / trellis=2 / 8x8dct=1 / cqm=0 / deadzone=21,11 / fast_pskip=1 / chroma_qp_offset=-3 / threads=34 / lookahead_threads=5 / sliced_threads=0 / nr=150 / decimate=1 / interlaced=0 / bluray_compat=0 / constrained_intra=0 / bframes=8 / b_pyramid=2 / b_adapt=2 / b_bias=0 / direct=3 / weightb=1 / open_gop=0 / weightp=2 / keyint=120 / keyint_min=61 / scenecut=0 / intra_refresh=0 / rc_lookahead=120 / rc=crf / mbtree=1 / crf=18.0 / qcomp=0.60 / qpmin=0 / qpmax=69 / qpstep=4 / vbv_maxrate=15000 / vbv_bufsize=31250 / crf_max=0.0 / nal_hrd=vbr / filler=0 / ip_ratio=1.40 / aq=3:1.00
Default : Yes
Forced : No
Color range : Limited
Color primaries : BT.709
Transfer characteristics : BT.709
Matrix coefficients : BT.709

Audio
ID : 2
Format : E-AC-3
Format/Info : Enhanced AC-3
Commercial name : Dolby Digital Plus
Codec ID : A_EAC3
Duration : 1 h 30 min
Bit rate mode : Constant
Bit rate : 640 kb/s
Channel(s) : 6 channels
Channel layout : L R C LFE Ls Rs
Sampling rate : 48.0 kHz
Frame rate : 31.250 FPS (1536 SPF)
Compression mode : Lossy
Stream size : 412 MiB (4%)
Language : English
Service kind : Complete Main
Default : Yes
Forced : No

Text
ID : 3
Format : UTF-8
Codec ID : S_TEXT/UTF8
Codec ID/Info : UTF-8 Plain Text
Language : English
Default : No
Forced : No





1 個附件 售價 大小 下載 時間

Top.Secret.1984.1080p.AMZN.WEBRip.DDP5.1.x264-NTb.torrent 0 金幣 96.25K 56 次 4小時前

#1樓
發帖時間:2019-10-12 03:15:33   |   回復數:0
游客組