conanlcg
超級版主

[更 早] [歐美] [劇情] [WEB-1080P] 魔女瑪塔 Mata.Hari.1931.1080p.AMZN.WEBRip.DDP2.0.x264-SbR 8.77GB

-->

帖子完整標題:魔女瑪塔 Mata.Hari.1931.1080p.AMZN.WEBRip.DDP2.0.x264-SbR 8.77GB




◎譯  名 魔女瑪塔
◎片  名 Mata Hari
◎年  代 1931
◎產  地 美國
◎類  別 劇情 / 愛情
◎語  言 英語
◎上映日期 1931-12-26
◎IMDb評分 6.6/10 from 3068 users
◎IMDb鏈接 https://www.imdb.com/title/tt0023196
◎豆瓣評分 7.4/10 from 427 users
◎豆瓣鏈接 https://movie.douban.com/subject/1947843/
◎片  長 89分鐘
◎導  演 喬治·菲茲莫里斯 George Fitzmaurice
◎編  劇 弗朗茨·舒伯特 Franz Schubert
◎主  演 Greta Garbo
      Ramon Novarro
      Lionel Barrymore


◎標  簽 葛麗泰·嘉寶 | 美國 | 傳記 | GretaGarbo | 美國電影 | 愛情 | 1931 | 經典

◎簡  介

  1917年德國的女間諜瑪塔前往巴黎從事秘密任務,收集重要的戰爭情報,她是一名雙重間諜,也是一名舞者,能夠偽裝各種不同身份與不同性別。但她不幸的愛上了一個蘇聯少尉,最終將她推向災難……
  影片《魔女瑪塔》改編自第一次世界大戰期間風靡全球的真實間諜瑪塔·哈麗的故事。
  葛麗泰·嘉寶在片中成功地詮釋了黑色女人的經典,立體呈現了她復雜的心態,在出場充滿異國情調的舞蹈中,更把女主角讓男人神魂顛倒,甚至愿意為她陰謀叛變的神韻盡現銀幕。
Video
ID : 1
Format : AVC
Format/Info : Advanced Video Codec
Format profile : [email protected]
Format settings : CABAC / 4 Ref Frames
Format settings, CABAC : Yes
Format settings, Reference frames : 4 frames
Codec ID : V_MPEG4/ISO/AVC
Duration : 1 h 28 min
Bit rate mode : Variable
Bit rate : 13.9 Mb/s
Maximum bit rate : 15.0 Mb/s
Width : 1 440 pixels
Height : 1 080 pixels
Display aspect ratio : 1.376
Original display aspect ratio : 4:3
Frame rate mode : Constant
Frame rate : 23.976 (24000/1001) FPS
Color space : YUV
Chroma subsampling : 4:2:0
Bit depth : 8 bits
Scan type : Progressive
Bits/(Pixel*Frame) : 0.374
Stream size : 8.63 GiB (98%)
Language : English
Default : Yes
Forced : No
Color range : Limited
Color primaries : BT.709
Transfer characteristics : BT.709
Matrix coefficients : BT.709

Audio
ID : 2
Format : E-AC-3
Format/Info : Enhanced AC-3
Commercial name : Dolby Digital Plus
Codec ID : A_EAC3
Duration : 1 h 28 min
Bit rate mode : Constant
Bit rate : 224 kb/s
Channel(s) : 2 channels
Channel layout : L R
Sampling rate : 48.0 kHz
Frame rate : 31.250 FPS (1536 SPF)
Compression mode : Lossy
Stream size : 142 MiB (2%)
Language : English
Service kind : Complete Main
Default : Yes
Forced : No

Text #1
ID : 3
Format : UTF-8
Codec ID : S_TEXT/UTF8
Codec ID/Info : UTF-8 Plain Text
Duration : 1 h 26 min
Bit rate : 60 b/s
Count of elements : 1065
Stream size : 38.5 KiB (0%)
Language : English
Default : No
Forced : No

Text #2
ID : 4
Format : UTF-8
Codec ID : S_TEXT/UTF8
Codec ID/Info : UTF-8 Plain Text
Duration : 1 h 27 min
Bit rate : 59 b/s
Count of elements : 1510
Stream size : 38.1 KiB (0%)
Title : SDH
Language : English
Default : No
Forced : No

Menu
00:00:00.000 : en:01. Credits
00:00:52.111 : en:02. Firing Squad
00:04:19.318 : en:03. Mata Hari's Dance
00:08:08.747 : en:04. Military in Her Thrall
00:13:49.422 : en:05. Pavilion Intrigue
00:16:06.225 : en:06. Andriani Insists
00:20:13.440 : en:07. Bedtime
00:23:26.167 : en:08. Last Night's Fool
00:25:49.810 : en:09. Her Well-Known Secret
00:30:59.252 : en:10. Insolent Interloper
00:34:46.146 : en:11. Evasive Maneuvers
00:38:16.690 : en:12. Love Comes First
00:43:47.020 : en:13. Stolen Secrets
00:46:02.656 : en:14. Gone in the Morning
00:49:53.386 : en:15. Dispensing with Carlotta
00:54:14.647 : en:16. We Older Men
00:57:09.690 : en:17. Driven to Kill
01:02:28.509 : en:18. Go now, Alexis
01:06:14.368 : en:19. Only Way to Resign
01:09:02.404 : en:20. Eyes for Alexis
01:14:00.169 : en:21. Sentenced to Die
01:19:01.304 : en:22. Honest Love
01:22:45.027 : en:23. Last Embrace
01:25:25.055 : en:24. Goodbye, My Beloved





1 個附件 售價 大小 下載 時間

Mata.Hari.1931.1080p.AMZN.WEBRip.DDP2.0.x264-SbR.torrent 0 金幣 88.20K 273 次 4小時前

#1樓
發帖時間:2019-10-12 03:31:53   |   回復數:0
游客組