conanlcg
超級版主

[2019] [WEB-1080P] Sk8.Dawg.2018.1080p.WEB-DL.DD5.1.H264-FGT 3.46GB

-->

帖子完整標題: Sk8.Dawg.2018.1080p.WEB-DL.DD5.1.H264-FGT 3.46GB



Video
ID : 1
Format : AVC
Format/Info : Advanced Video Codec
Format profile : [email protected]
Format settings : CABAC / 4 Ref Frames
Format settings, CABAC : Yes
Format settings, Reference frames : 4 frames
Codec ID : V_MPEG4/ISO/AVC
Duration : 1 h 30 min
Bit rate : 5 094 kb/s
Width : 1 908 pixels
Height : 1 068 pixels
Display aspect ratio : 16:9
Frame rate mode : Constant
Frame rate : 23.976 (24000/1001) FPS
Color space : YUV
Chroma subsampling : 4:2:0
Bit depth : 8 bits
Scan type : Progressive
Bits/(Pixel*Frame) : 0.104
Stream size : 3.21 GiB (93%)
Title : Sk8.Dawg.2018.1080p.WEB-DL.DD5.1.H264-FGT
Language : English
Default : Yes
Forced : No
Color range : Limited
Color primaries : BT.709
Transfer characteristics : BT.709
Matrix coefficients : BT.709

Audio
ID : 2
Format : AC-3
Format/Info : Audio Coding 3
Commercial name : Dolby Digital
Codec ID : A_AC3
Duration : 1 h 30 min
Bit rate mode : Constant
Bit rate : 384 kb/s
Channel(s) : 6 channels
Channel layout : L R C LFE Ls Rs
Sampling rate : 48.0 kHz
Frame rate : 31.250 FPS (1536 SPF)
Bit depth : 16 bits
Compression mode : Lossy
Stream size : 248 MiB (7%)
Title : Sk8.Dawg.2018.1080p.WEB-DL.DD5.1.H264-FGT
Language : English
Service kind : Complete Main
Default : Yes
Forced : No

Menu
00:00:00.000 : en:1
00:09:35.000 : en:2
00:19:25.000 : en:3
00:32:08.000 : en:4
00:43:05.000 : en:5
00:52:06.000 : en:6
01:02:38.000 : en:7
01:12:52.000 : en:8
01:21:42.000 : en:9
01:27:10.000 : en:10





1 個附件 售價 大小 下載 時間

Sk8.Dawg.2018.1080p.WEB-DL.DD5.1.H264-FGT.torrent 0 金幣 35.07K 70 次 3小時前

#1樓
發帖時間:2019-10-12 04:08:02   |   回復數:1
chulps
一代宗師
d
36分鐘前 #2樓
游客組